HEVC TORRENT TRACKER


Left

Релиз - seleZen


Сделано в Италии - Made in Italy - 2020

Общее

Уникальный идентификатор :204396812620412667177883692281825275747 (0x99C564EA0C675E25BD202F6087F72F63)
Полное имя :Made in Italy (2020) BDRip (1280x694) HEVC.mkv
Формат :Matroska
Версия формата :Version 4
Размер файла :3,47 Гбайт
Продолжительность :1 ч. 33 м.
Общий поток :5 295 Кбит/сек
Название фильма :Made in Italy 2020 from seleZen
Дата кодирования :UTC 2021-01-09 10:33:36
Программа кодирования :mkvmerge v7.8.0 ('River Man') 32bit built on Apr3 2015 12:11:22
Библиотека кодирования :libebml v1.3.1 + libmatroska v1.4.2

Видео

Идентификатор :1
Формат :HEVC
Формат/Информация :High Efficiency Video Coding
Профиль формата :Main 10@L4@High
Идентификатор кодека :V_MPEGH/ISO/HEVC
Продолжительность :1 ч. 33 м.
Битрейт :4 525 Кбит/сек
Ширина :1 280 пикселей
Высота :694 пикселя
Соотношение сторон :1,85:1
Режим частоты кадров :Постоянный
Частота кадров :23,976 (24000/1001) кадра/сек
Цветовое пространство :YUV
Субдискретизация насыщенности :4:2:0
Битовая глубина :10 бит
Бит/(Пиксели*Кадры) :0.212
Размер потока :2,96 Гбайт (85%)
Default :Да
Forced :Нет

Аудио #1

Идентификатор :2
Формат :AC-3
Формат/Информация :Audio Coding 3
Коммерческое название :Dolby Digital
Идентификатор кодека :A_AC3
Продолжительность :1 ч. 33 м.
Вид битрейта :Постоянный
Битрейт :384 Кбит/сек
Каналы :6 каналов
Channel layout :L R C LFE Ls Rs
Частота :48,0 КГц
Частота кадров :31,250 кадров/сек (1536 SPF)
Метод сжатия :С потерями
Размер потока :257 Мбайт (7%)
Заголовок :iTunes
Язык :Russian
Service kind :Complete Main
Default :Да
Forced :Нет

Аудио #2

Идентификатор :3
Формат :AC-3
Формат/Информация :Audio Coding 3
Коммерческое название :Dolby Digital
Идентификатор кодека :A_AC3
Продолжительность :1 ч. 33 м.
Вид битрейта :Постоянный
Битрейт :384 Кбит/сек
Каналы :6 каналов
Channel layout :L R C LFE Ls Rs
Частота :48,0 КГц
Частота кадров :31,250 кадров/сек (1536 SPF)
Метод сжатия :С потерями
Размер потока :257 Мбайт (7%)
Заголовок :Original
Язык :English
Service kind :Complete Main
Default :Нет
Forced :Нет

Текст #1

Идентификатор :4
Формат :UTF-8
Идентификатор кодека :S_TEXT/UTF8
Идентификатор кодека/Информация :UTF-8 Plain Text
Продолжительность :1 ч. 27 м.
Битрейт :73 бит/сек
Count of elements :1038
Размер потока :46,6 Кбайт (0%)
Заголовок :Full [FOCS]
Язык :Russian
Default :Да
Forced :Нет

Текст #2

Идентификатор :5
Формат :UTF-8
Идентификатор кодека :S_TEXT/UTF8
Идентификатор кодека/Информация :UTF-8 Plain Text
Продолжительность :1 ч. 25 м.
Битрейт :39 бит/сек
Count of elements :947
Размер потока :25,0 Кбайт (0%)
Заголовок :Full
Язык :English
Default :Нет
Forced :Нет

Текст #3

Идентификатор :6
Формат :UTF-8
Идентификатор кодека :S_TEXT/UTF8
Идентификатор кодека/Информация :UTF-8 Plain Text
Продолжительность :1 ч. 32 м.
Битрейт :48 бит/сек
Count of elements :1270
Размер потока :32,8 Кбайт (0%)
Заголовок :SDH
Язык :English
Default :Нет
Forced :Нет

Меню

00:00:00.000 ::Chapter 1
00:07:03.131 ::Chapter 2
00:14:18.649 ::Chapter 3
00:21:22.656 ::Chapter 4
00:29:05.619 ::Chapter 5
00:36:19.302 ::Chapter 6
00:45:35.024 ::Chapter 7
00:53:34.753 ::Chapter 8
01:01:33.148 ::Chapter 9
01:05:40.895 ::Chapter 10
01:14:44.105 ::Chapter 11
01:19:55.207 ::Chapter 12
Качество: BDRip 720p
Перевод: Дублированный
Видео: HEVC, 4525 Кбит/с, 1280x694, 10 бит
Аудио: Русский, Дублированный (AC3, 6 ch, 384 Кбит/с)
Английский, Оригинал (AC3, 6 ch, 384 Кбит/с)
Субтитры: Английские (полные) - включены

Честный вор - Honest Thief - 2020

Общее

Уникальный идентификатор :243506455205634059733834096153441707750 (0xB731A32AE40CC6AF9E60799B209DA6E6)
Полное имя :Honest Thief (2020) BDRip (1280x536) HEVC.mkv
Формат :Matroska
Версия формата :Version 4
Размер файла :1,45 Гбайт
Продолжительность :1 ч. 38 м.
Общий поток :2 111 Кбит/сек
Название фильма :Honest Thief 2020 from seleZen
Дата кодирования :UTC 2020-12-19 17:31:28
Программа кодирования :mkvmerge v7.8.0 ('River Man') 32bit built on Apr3 2015 12:11:22
Библиотека кодирования :libebml v1.3.1 + libmatroska v1.4.2

Видео

Идентификатор :1
Формат :HEVC
Формат/Информация :High Efficiency Video Coding
Профиль формата :Main 10@L3.1@Main
Идентификатор кодека :V_MPEGH/ISO/HEVC
Продолжительность :1 ч. 38 м.
Битрейт :1 341 Кбит/сек
Ширина :1 280 пикселей
Высота :536 пикселей
Соотношение сторон :2,40:1
Режим частоты кадров :Постоянный
Частота кадров :24,000 кадра/сек
Цветовое пространство :YUV
Субдискретизация насыщенности :4:2:0
Битовая глубина :10 бит
Бит/(Пиксели*Кадры) :0.081
Размер потока :945 Мбайт (64%)
Default :Да
Forced :Нет
Цветовой диапазон :Limited
Основные цвета :BT.709
Характеристики трансфера :BT.709
Коэффициенты матрицы :BT.709

Аудио #1

Идентификатор :2
Формат :AC-3
Формат/Информация :Audio Coding 3
Коммерческое название :Dolby Digital
Идентификатор кодека :A_AC3
Продолжительность :1 ч. 38 м.
Вид битрейта :Постоянный
Битрейт :384 Кбит/сек
Каналы :6 каналов
Channel layout :L R C LFE Ls Rs
Частота :48,0 КГц
Частота кадров :31,250 кадров/сек (1536 SPF)
Метод сжатия :С потерями
Размер потока :271 Мбайт (18%)
Заголовок :iTunes
Язык :Russian
Service kind :Complete Main
Default :Да
Forced :Нет

Аудио #2

Идентификатор :3
Формат :AC-3
Формат/Информация :Audio Coding 3
Коммерческое название :Dolby Digital
Идентификатор кодека :A_AC3
Продолжительность :1 ч. 38 м.
Вид битрейта :Постоянный
Битрейт :384 Кбит/сек
Каналы :6 каналов
Channel layout :L R C LFE Ls Rs
Частота :48,0 КГц
Частота кадров :31,250 кадров/сек (1536 SPF)
Метод сжатия :С потерями
Размер потока :271 Мбайт (18%)
Заголовок :Original
Язык :English
Service kind :Complete Main
Default :Нет
Forced :Нет

Текст

Идентификатор :4
Формат :UTF-8
Идентификатор кодека :S_TEXT/UTF8
Идентификатор кодека/Информация :UTF-8 Plain Text
Продолжительность :1 ч. 28 м.
Битрейт :54 бит/сек
Count of elements :1111
Размер потока :35,6 Кбайт (0%)
Заголовок :Full
Язык :English
Default :Да
Forced :Нет

Меню

00:00:00.000 ::Chapter 1
00:07:44.667 ::Chapter 2
00:14:48.208 ::Chapter 3
00:19:37.750 ::Chapter 4
00:24:50.292 ::Chapter 5
00:34:49.500 ::Chapter 6
00:45:43.583 ::Chapter 7
00:56:30.833 ::Chapter 8
01:06:27.250 ::Chapter 9
01:14:13.667 ::Chapter 10
01:22:05.375 ::Chapter 11
01:30:00.167 ::Chapter 12
Качество: BDRip 720p
Перевод: Дублированный
Видео: HEVC, 1341 Кбит/с, 1280x536, 10 бит
Аудио: Русский, Дублированный (AC3, 6 ch, 384 Кбит/с)
Английский, Оригинал (AC3, 6 ch, 384 Кбит/с)
Субтитры: Английские (полные) - включены