HEVC TORRENT TRACKER


Left
Честный вор - Honest Thief - 2020
Трейлер фильма
Честный вор
Honest Thief
КиноПоиск:5.913
IMDb:6


Описание
Гениальный грабитель решает завязать с ремеслом ради любимой. Боевик с Лиамом Нисоном о праве на второй шанс

Торренты

Качество Перевод Размер Скачать Подробно
BDRip 1080pДублированный3.38 Gb

Общее

Уникальный идентификатор :325271035150670845577444097608388458055 (0xF4B4EC33B2B94E78996C71002E1C3647)
Полное имя :Honest Thief 2020.BDRip.1080p.HEVC.DUB.10bit.mikos.mkv
Формат :Matroska
Версия формата :Version 4
Размер файла :3,38 Гбайт
Продолжительность :1 ч. 38 м.
Общий поток :4 914 Кбит/сек
Название фильма :Honest Thief 2020.BDRip.1080p.HEVC.DUB.10bit.mikos
Дата кодирования :UTC 2020-12-16 13:13:17
Программа кодирования :mkvmerge v51.0.0 ('I Wish') 64-bit
Библиотека кодирования :libebml v1.4.0 + libmatroska v1.6.2

Видео

Идентификатор :1
Формат :HEVC
Формат/Информация :High Efficiency Video Coding
Профиль формата :Main 10@L4.1@High
Идентификатор кодека :V_MPEGH/ISO/HEVC
Продолжительность :1 ч. 38 м.
Битрейт :3 888 Кбит/сек
Ширина :1 920 пикселей
Высота :804 пикселя
Соотношение сторон :2,40:1
Режим частоты кадров :Постоянный
Частота кадров :24,000 кадра/сек
Цветовое пространство :YUV
Субдискретизация насыщенности :4:2:0
Битовая глубина :10 бит
Бит/(Пиксели*Кадры) :0.105
Размер потока :2,68 Гбайт (79%)
Заголовок :Rip by mikos
Библиотека кодирования :x265 3.4+27-g241342f25:[Windows][clang 10.0.1][64 bit] 10bit
Настройки программы :cpuid=1111039 / frame-threads=3 / numa-pools=12 / wpp / no-pmode / no-pme / no-psnr / no-ssim / log-level=3 / input-csp=1 / input-res=1920x804 / interlace=0 / total-frames=0 / level-idc=41 / high-tier=1 / uhd-bd=0 / ref=5 / allow-non-conformance / no-repeat-headers / annexb / no-aud / no-hrd / info / hash=0 / no-temporal-layers / open-gop / min-keyint=23 / keyint=250 / gop-lookahead=0 / bframes=14 / b-adapt=2 / b-pyramid / bframe-bias=0 / rc-lookahead=60 / lookahead-slices=5 / scenecut=40 / hist-scenecut=0 / radl=0 / no-splice / no-intra-refresh / ctu=32 / min-cu-size=8 / no-rect / no-amp / max-tu-size=32 / tu-inter-depth=4 / tu-intra-depth=4 / limit-tu=0 / rdoq-level=2 / dynamic-rd=0.00 / no-ssim-rd / signhide / no-tskip / nr-intra=0 / nr-inter=0 / no-constrained-intra / strong-intra-smoothing / max-merge=5 / limit-refs=3 / no-limit-modes / me=3 / subme=7 / merange=57 / temporal-mvp / no-frame-dup / no-hme / weightp / no-weightb / no-analyze-src-pics / deblock=-3:-3 / no-sao / no-sao-non-deblock / rd=4 / selective-sao=0 / early-skip / rskip / no-fast-intra / no-tskip-fast / no-cu-lossless / b-intra / no-splitrd-skip / rdpenalty=0 / psy-rd=2.00 / psy-rdoq=1.00 / no-rd-refine / no-lossless / cbqpoffs=0 / crqpoffs=0 / rc=crf / crf=19.5 / qcomp=0.65 / qpstep=4 / stats-write=0 / stats-read=0 / vbv-maxrate=50000 / vbv-bufsize=50000 / vbv-init=0.9 / min-vbv-fullness=50.0 / max-vbv-fullness=80.0 / crf-max=30.0 / crf-min=0.0 / ipratio=1.40 / pbratio=1.30 / aq-mode=2 / aq-strength=0.90 / no-cutree / zone-count=0 / no-strict-cbr / qg-size=32 / no-rc-grain / qpmax=69 / qpmin=0 / no-const-vbv / sar=1 / overscan=0 / videoformat=5 / range=0 / colorprim=2 / transfer=2 / colormatrix=2 / chromaloc=0 / display-window=0 / cll=0,0 / min-luma=0 / max-luma=1023 / log2-max-poc-lsb=8 / vui-timing-info / vui-hrd-info / slices=1 / no-opt-qp-pps / no-opt-ref-list-length-pps / no-multi-pass-opt-rps / scenecut-bias=0.05 / hist-threshold=0.03 / no-opt-cu-delta-qp / no-aq-motion / no-hdr10 / no-hdr10-opt / no-dhdr10-opt / no-idr-recovery-sei / analysis-reuse-level=0 / analysis-save-reuse-level=0 / analysis-load-reuse-level=0 / scale-factor=0 / refine-intra=0 / refine-inter=0 / refine-mv=1 / refine-ctu-distortion=0 / no-limit-sao / ctu-info=0 / no-lowpass-dct / refine-analysis-type=0 / copy-pic=1 / max-ausize-factor=1.0 / no-dynamic-refine / no-single-sei / no-hevc-aq / no-svt / no-field / qp-adaptation-range=1.00 / no-scenecut-aware-qpconformance-window-offsets / right=0 / bottom=0 / decoder-max-rate=0 / no-vbv-live-multi-pass
Язык :English
Default :Да
Forced :Нет
Цветовой диапазон :Limited
Основные цвета :BT.709
Характеристики трансфера :BT.709
Коэффициенты матрицы :BT.709

Аудио #1

Идентификатор :2
Формат :AC-3
Формат/Информация :Audio Coding 3
Коммерческое название :Dolby Digital
Идентификатор кодека :A_AC3
Продолжительность :1 ч. 38 м.
Вид битрейта :Постоянный
Битрейт :384 Кбит/сек
Каналы :6 каналов
Channel layout :L R C LFE Ls Rs
Частота :48,0 КГц
Частота кадров :31,250 кадров/сек (1536 SPF)
Метод сжатия :С потерями
Размер потока :271 Мбайт (8%)
Заголовок :iTunes
Язык :Russian
Service kind :Complete Main
Default :Да
Forced :Нет

Аудио #2

Идентификатор :3
Формат :AC-3
Формат/Информация :Audio Coding 3
Коммерческое название :Dolby Digital
Идентификатор кодека :A_AC3
Продолжительность :1 ч. 38 м.
Вид битрейта :Постоянный
Битрейт :640 Кбит/сек
Каналы :6 каналов
Channel layout :L R C LFE Ls Rs
Частота :48,0 КГц
Частота кадров :31,250 кадров/сек (1536 SPF)
Метод сжатия :С потерями
Размер потока :451 Мбайт (13%)
Заголовок :Original
Язык :English
Service kind :Complete Main
Default :Нет
Forced :Нет

Текст

Идентификатор :4
Формат :UTF-8
Идентификатор кодека :S_TEXT/UTF8
Идентификатор кодека/Информация :UTF-8 Plain Text
Продолжительность :1 ч. 28 м.
Битрейт :54 бит/сек
Count of elements :1111
Размер потока :35,6 Кбайт (0%)
Заголовок :Full
Язык :English
Default :Да
Forced :Нет

Меню

00:00:00.000 ::Chapter 1
00:07:44.667 ::Chapter 2
00:14:48.208 ::Chapter 3
00:19:37.750 ::Chapter 4
00:24:50.292 ::Chapter 5
00:34:49.500 ::Chapter 6
00:45:43.583 ::Chapter 7
00:56:30.833 ::Chapter 8
01:06:27.250 ::Chapter 9
01:14:13.667 ::Chapter 10
01:22:05.375 ::Chapter 11
01:30:00.167 ::Chapter 12
Автор релиза: mikos
Качество: BDRip 1080p
Перевод: Дублированный
Видео: HEVC, 3888 Кбит/с, 1920x804, 10 бит
Аудио: Русский, Дублированный (AC3, 6 ch, 384 Кбит/с)
Английский, Оригинал (AC3, 6 ch, 640 Кбит/с)
Субтитры: Английские (полные)
BDRip 720pДублированный1.45 Gb

Общее

Уникальный идентификатор :243506455205634059733834096153441707750 (0xB731A32AE40CC6AF9E60799B209DA6E6)
Полное имя :Honest Thief (2020) BDRip (1280x536) HEVC.mkv
Формат :Matroska
Версия формата :Version 4
Размер файла :1,45 Гбайт
Продолжительность :1 ч. 38 м.
Общий поток :2 111 Кбит/сек
Название фильма :Honest Thief 2020 from seleZen
Дата кодирования :UTC 2020-12-19 17:31:28
Программа кодирования :mkvmerge v7.8.0 ('River Man') 32bit built on Apr3 2015 12:11:22
Библиотека кодирования :libebml v1.3.1 + libmatroska v1.4.2

Видео

Идентификатор :1
Формат :HEVC
Формат/Информация :High Efficiency Video Coding
Профиль формата :Main 10@L3.1@Main
Идентификатор кодека :V_MPEGH/ISO/HEVC
Продолжительность :1 ч. 38 м.
Битрейт :1 341 Кбит/сек
Ширина :1 280 пикселей
Высота :536 пикселей
Соотношение сторон :2,40:1
Режим частоты кадров :Постоянный
Частота кадров :24,000 кадра/сек
Цветовое пространство :YUV
Субдискретизация насыщенности :4:2:0
Битовая глубина :10 бит
Бит/(Пиксели*Кадры) :0.081
Размер потока :945 Мбайт (64%)
Default :Да
Forced :Нет
Цветовой диапазон :Limited
Основные цвета :BT.709
Характеристики трансфера :BT.709
Коэффициенты матрицы :BT.709

Аудио #1

Идентификатор :2
Формат :AC-3
Формат/Информация :Audio Coding 3
Коммерческое название :Dolby Digital
Идентификатор кодека :A_AC3
Продолжительность :1 ч. 38 м.
Вид битрейта :Постоянный
Битрейт :384 Кбит/сек
Каналы :6 каналов
Channel layout :L R C LFE Ls Rs
Частота :48,0 КГц
Частота кадров :31,250 кадров/сек (1536 SPF)
Метод сжатия :С потерями
Размер потока :271 Мбайт (18%)
Заголовок :iTunes
Язык :Russian
Service kind :Complete Main
Default :Да
Forced :Нет

Аудио #2

Идентификатор :3
Формат :AC-3
Формат/Информация :Audio Coding 3
Коммерческое название :Dolby Digital
Идентификатор кодека :A_AC3
Продолжительность :1 ч. 38 м.
Вид битрейта :Постоянный
Битрейт :384 Кбит/сек
Каналы :6 каналов
Channel layout :L R C LFE Ls Rs
Частота :48,0 КГц
Частота кадров :31,250 кадров/сек (1536 SPF)
Метод сжатия :С потерями
Размер потока :271 Мбайт (18%)
Заголовок :Original
Язык :English
Service kind :Complete Main
Default :Нет
Forced :Нет

Текст

Идентификатор :4
Формат :UTF-8
Идентификатор кодека :S_TEXT/UTF8
Идентификатор кодека/Информация :UTF-8 Plain Text
Продолжительность :1 ч. 28 м.
Битрейт :54 бит/сек
Count of elements :1111
Размер потока :35,6 Кбайт (0%)
Заголовок :Full
Язык :English
Default :Да
Forced :Нет

Меню

00:00:00.000 ::Chapter 1
00:07:44.667 ::Chapter 2
00:14:48.208 ::Chapter 3
00:19:37.750 ::Chapter 4
00:24:50.292 ::Chapter 5
00:34:49.500 ::Chapter 6
00:45:43.583 ::Chapter 7
00:56:30.833 ::Chapter 8
01:06:27.250 ::Chapter 9
01:14:13.667 ::Chapter 10
01:22:05.375 ::Chapter 11
01:30:00.167 ::Chapter 12
Автор релиза: seleZen
Качество: BDRip 720p
Перевод: Дублированный
Видео: HEVC, 1341 Кбит/с, 1280x536, 10 бит
Аудио: Русский, Дублированный (AC3, 6 ch, 384 Кбит/с)
Английский, Оригинал (AC3, 6 ch, 384 Кбит/с)
Субтитры: Английские (полные) - включены