HEVC TORRENT TRACKER


Left
Легенды ночных стражей - Legend of the Guardians - 2010
Легенды ночных стражей
Legend of the Guardians: The Owls of Ga’Hoole
КиноПоиск:7.523
IMDb:6.9


Описание

Торренты

Качество Перевод Размер Скачать Подробно
BDRip 1080pДублированный5.38 Gb

Общее

Уникальный идентификатор :178592288277963850485527014973390875762 (0x865B9FA324A50AB99E77DE4072FA6C72)
Полное имя :Legend of the Guardians The Owls of Ga'Hoole (2010) BDRip 1080p [HEVC] 10bit.mkv
Формат :Matroska
Версия формата :Version 4
Размер файла :5,38 Гбайт
Продолжительность :1 ч. 36 м.
Общий поток :7 954 Кбит/сек
Название фильма :LEGEND_OF_THE_GUARDIANS__THE_OWLS_OF_GA'HOOLE_3D.Title1051
Дата кодирования :UTC 2017-11-22 17:02:15
Программа кодирования :mkvmerge v9.5.0 ('Quiet Fire') 64bit
Библиотека кодирования :libebml v1.3.4 + libmatroska v1.4.5
Обложка :Yes
Attachments :cover.jpg

Видео

Идентификатор :1
Формат :HEVC
Формат/Информация :High Efficiency Video Coding
Профиль формата :Main 10@L4@Main
Идентификатор кодека :V_MPEGH/ISO/HEVC
Продолжительность :1 ч. 36 м.
Битрейт :7 316 Кбит/сек
Ширина :1 920 пикселей
Высота :816 пикселей
Соотношение сторон :2,35:1
Режим частоты кадров :Постоянный
Частота кадров :23,976 (24000/1001) кадра/сек
Цветовое пространство :YUV
Субдискретизация насыщенности :4:2:0
Битовая глубина :10 бит
Бит/(Пиксели*Кадры) :0.195
Размер потока :4,94 Гбайт (92%)
Default :Да
Forced :Нет
Цветовой диапазон :Limited
Основные цвета :BT.709
Характеристики трансфера :BT.709
Коэффициенты матрицы :BT.709

Аудио

Идентификатор :2
Формат :AC-3
Формат/Информация :Audio Coding 3
Коммерческое название :Dolby Digital
Идентификатор кодека :A_AC3
Продолжительность :1 ч. 36 м.
Вид битрейта :Постоянный
Битрейт :640 Кбит/сек
Каналы :6 каналов
Channel layout :L R C LFE Ls Rs
Частота :48,0 КГц
Частота кадров :31,250 кадров/сек (1536 SPF)
Метод сжатия :С потерями
Размер потока :443 Мбайт (8%)
Язык :Russian
Service kind :Complete Main
Default :Да
Forced :Нет

Меню

00:00:00.000 :en:(01)00:00:00:000
00:10:52.026 :en:(02)00:10:52:026
00:20:10.375 :en:(03)00:20:10:375
00:30:07.096 :en:(04)00:30:07:096
00:40:01.273 :en:(05)00:40:01:273
00:49:57.786 :en:(06)00:49:57:786
01:00:34.130 :en:(07)01:00:34:130
01:09:45.097 :en:(08)01:09:45:097
01:18:58.108 :en:(09)01:18:58:108
01:28:19.752 :en:(10)01:28:19:752
Автор релиза: Неизвестен
Качество: BDRip 1080p
Перевод: Дублированный
Видео: HEVC, 7316 Кбит/с, 1920x816, 10 бит
Аудио: Русский, Дублированный (AC3, 6 ch, 640 Кбит/с)
Субтитры: Нет